extra-torrent.online - The Largest Bittorent SystemLogin   |   Register
Latest Articles
Most searched
Hot torrents
First Cams
View Torrent Info: Going In Style 2017 HDCAM NEW-SRC XviD-MrGrey
View Torrent Info: The.Fate.of.the.Furious.2017.TC.x264.AC3-ETRG
View Torrent Info: Guardians of the Galaxy Vol. 2 2017 NEW HDCAM x264 HQMic-CPG
View Torrent Info: Free Fire 2017 HDCAM x264-CPG
Hot torrents
XVID DIVX
View Torrent Info: Transpecos.2016.BRRip.XviD.AC3-EVO
View Torrent Info: White.Girl.2016.BRRip.XviD.AC3-EVO
View Torrent Info: Mindhorn.2017.V2.HDRip.XviD.AC3-EVO
View Torrent Info: Dead.Awake.2016.HDRip.XviD.AC3-EVO
Hot torrents
H264 X264
View Torrent Info: Logan.2017.1080p.WEB-DL.H264.AC3-EVO[EtHD]
View Torrent Info: Seventh Son (2014) 720p BluRay x264 DTS [Eng Hindi] Soup
View Torrent Info: Transpecos.2016.720p.BluRay.x264-BiPOLAR[EtHD]
View Torrent Info: Fist Fight (2017) 1080p BRRiP - 6CH - 1.75GB - ShAaNiG
Hot torrents
BluRay, 4k UHD
View Torrent Info: The.Great.Wall.2016.Multi.1080p.BluRay.x264.Atmos.TrueHD7.1-DDR
View Torrent Info: Transpecos.2016.1080p.BluRay.x264-BiPOLAR[EtHD]
View Torrent Info: White.Girl.2016.1080p.BluRay.x264-SADPANDA[EtHD]
View Torrent Info: Fist.Fight.2017.1080p.BluRay.x264-DRONES[EtHD]
Hot torrents
Television
View Torrent Info: American.Gods.S01E03.PROPER.HDTV.x264-BATV[ettv]
View Torrent Info: Into.The.Badlands.S02E09.WEB-DL.x264-FUM[ettv]
View Torrent Info: Lucifer.S02E16.HDTV.x264-KILLERS[ettv]
View Torrent Info: UFC 211 PPV Miocic vs dos Santos 2 HDTV x264-Ebi [TJET]
View Torrent Info: Cloudy With A Chance Of Meatballs 2 (2013) x264 720p BluRay Eng Subs {Dual Audio} [Hindi ORG DD 2.0   English 5.1] Exclusive By DREDD
View Torrent Info: Dangal 2016 1080p HDLight HDTV x264 -DDR
View Torrent Info: Sarkar 3 (2017) DesiSCR 1CDRIP x264 AAC 2.0 [DDR]
View Torrent Info: Meri Pyaari Bindu (2017) DesiPDVD 1CDRIP x264 AAC 2.0 - [Deflickered] [DDR]
30s
Chat
To add new messages please Login or Register for FREE
Warning! Use a VPN When Downloading Torrents!
Your IP Address is 173.244.36.86.   Location is United States
Your Internet Provider and Government can track your torrent activity!  Hide your IP ADDRESS with a VPN!
ExtraTorrent strongly recommends using Trust.Zone VPN to anonymize your torrenting. It's FREE!
Get VPN Now for FREE!

Extratorrent > Categories > Movies torrents > Bollywood/Desi torrents


Browse Movies torrents

Dear Zindagi (2016) x264 DVDRIP AC3 5.1 ESub -DDR torrent


Download torrent:Download Dear Zindagi (2016) x264 DVDRIP AC3 5.1 ESub -DDR torrentMagnet linkBookmark Torrent: Dear Zindagi (2016) x264 DVDRIP AC3 5.1 ESub -DDR Dear Zindagi (2016) x264 DVDRIP AC3 5.1 ESub -DDR torrent
Info hash:B1A9BE737797BD56CF5EA133F593D374F8011C09
Category:Categories > Movies torrents > Bollywood/Desi torrents
Trackers:
13   View all torrent trackers >
Health:
 seeds: 560, leechers: 178| Update >
Torrent language:Hindi Hindi
Total Size:1.48 GB
Number of files:
3   View torrent files >
Torrent status:Added by trusted uploader Added by trusted uploader Vip MemberTrusted UploaderET junkieET loverSuperman
Uploader:Vip MemberTrusted UploaderET junkieET loverSuperman
Torrent added:2017-01-05 02:21:55
Users rating:10.0 / 10, total 5 votes.  Latest by: , , Turtle, ,
Dear Zindagi (2016) x264 DVDRIP AC3 5.1 ESub -DDR


Download Dear Zindagi (2016) x264 DVDRIP AC3 5.1 ESub -DDR torrent




Your IP Address is 173.244.36.86.   Location is United States
Your Internet Provider and Government can track your torrent activity!  Hide your IP ADDRESS with a VPN!
ExtraTorrent strongly recommends using Trust.Zone VPN to anonymize your torrenting. It's FREE!

HIDE ME NOW
Torrent Description
ddr_logo.png
05af2c08cb52bb0f426657cbbbc393fa.jpg

1/3 DvDrip x264

AC3 5.1 Audio

English Subtitle(s)

ScreenShots
51c3debafed3849db12693c28a71571c.th.png 90a02c75b792bb8a0470a597bbefaecd.th.png a4746c3d4524da8afedf75e8334c9831.th.png ba15ac507c5a373f923c164b6be23b80.th.png 84c01d42d41a3298401a994cd8eac408.th.png 79bdcf07f84ba0a7195de3dcd5278de4.th.png 220e6d546a4b2d91b148ed540a158264.th.png 0912c13101b6f9034e332a872a4c645d.th.png f36a9039ee3f9a6206edb1db0983ced5.th.png df25eb9d18c3294a4fd2401a5310e4f4.th.png b370e9a50e891323ee4194f3b78c18c4.th.png 0b64a7f5b476ca3e9f6581897eef4954.th.png 8d8444f5bf664ead443bb93ed3e93e07.th.png 836545ea497b6026a7b82f2edbe61a87.th.png


Specs:
Source: DVD9 @ Hideman08

Format : Matroska
File size : 1.47 GiB
Duration : 2 h 30 min
Overall bit rate : 1 405 kb/s


Video
Format : AVC
Format/Info : Advanced Video Codec
Format profile : [email protected]
Format settings, CABAC : Yes
Format settings, ReFrames : 16 frames
Codec ID : V_MPEG4/ISO/AVC
Duration : 2 h 30 min
Bit rate : 1 137 kb/s
Width : 720 pixels
Height : 304 pixels
Display aspect ratio : 2.35:1
Frame rate mode : Constant
Frame rate : 23.976 (24000/1001) FPS
Color space : YUV
Chroma subsampling : 4:2:0
Bit depth : 8 bits
Scan type : Progressive
Bits/(Pixel*Frame) : 0.217
Stream size : 1.20 GiB (82%)
Default : Yes
Forced : No
Color range : Limited
Color primaries : BT.601 NTSC
Transfer characteristics : BT.470 System B, BT.470 System G
Matrix coefficients : BT.601

Audio
Format : AC-3
Format/Info : Audio Coding 3
Mode extension : CM (complete main)
Format settings, Endianness : Big
Codec ID : A_AC3
Duration : 2 h 30 min
Bit rate mode : Constant
Bit rate : 256 kb/s
Channel(s) : 6 channels
Channel positions : Front: L C R, Side: L R, LFE
Sampling rate : 48.0 kHz
Frame rate : 31.250 FPS (1536 spf)
Compression mode : Lossy
Stream size : 275 MiB (18%)
Language : Hindi
Default : Yes
Forced : No

Chapters = YES


SAMPLE Included

A DDR Exclusive Encode

Download Dear Zindagi (2016) x264 DVDRIP AC3 5.1 ESub -DDR torrent


Related Torrents


Comments (please add your comment)
1
posted by (2017-01-05 05:44:53)
subho_29 avatarThanks Team DDR you Rock!!


2
posted by Turtle (2017-01-05 08:25:37)
Su1than avatarThanks a lot DDR


3
posted by ModeratorXbox (2017-01-05 17:40:32)
LoMX avatarThanks DDR.


4
posted by (2017-01-06 11:42:33)
nmNeck avatarplease release in 1080p. Thanks though...



Loading...


Home - Browse Torrents - Upload Torrent - Stat - Forum - FAQ - Login
extra-torrent.online is in compliance with copyrights
Can't load ExtraTorrent? Try our official mirrors: etmirror.com - etproxy.com - extratorrentonline.com - extratorrentlive.com
2006-2017 extra-torrent.online4