extra-torrent.online - The Largest Bittorent SystemLogin   |   Register
Latest Articles
Most searched
Hot torrents
First Cams
View Torrent Info: The.Fate.of.the.Furious.2017.HDTS.H264.AC3.HQ.Hive-CM8
View Torrent Info: The Boss Baby 2017 720p HD-TS x264 AC3-CPG
View Torrent Info: Before I Fall 2017 HDCAM 700MB x264-DiRG
View Torrent Info: The Belko Experiment 2017 HDCAM 700MB x264-DiRG
Hot torrents
XVID DIVX
View Torrent Info: Fifty.Shades.Darker.2017.UNRATED.BRRip.XViD.AC3-ETRG
View Torrent Info: Mythica.The.Iron.Crown.2016.BRRip.XviD.AC3-EVO
View Torrent Info: The.Void.2016.BRRip.XviD.AC3-EVO
View Torrent Info: Joes.War.2017.HDRip.XviD.AC3-EVO
Hot torrents
H264 X264
View Torrent Info: My Father Die (2016) 720p BRRiP - 800MB - ShAaNiG
View Torrent Info: Stratton (2017) 720p BRRiP - 850MB - ShAaNiG
View Torrent Info: Fifty.Shades.Darker.2017.UNRATED.720p.BluRay.x264-DRONES[EtHD]
View Torrent Info: The.Void.2016.720p.BluRay.X264-AMIABLE[EtHD]
Hot torrents
BluRay, 4k UHD
View Torrent Info: Fifty.Shades.Darker.2017.UNRATED.1080p.BluRay.x264.DTS-HD.MA.7.1-HDC[EtHD]
View Torrent Info: The Void 2016 Bluray 1080P x264 DTSHD 5.1 -DDR
View Torrent Info: The Legend of Ben Hall 2016 Bluray 1080p x264 DTSHD5.1 -DDR
View Torrent Info: Hacker.2016.BluRay.1080p.AVC.DTS-HD.MA5.1-DDR
Hot torrents
Television
View Torrent Info: Arrow.S05E19.WEB-DL.x264-FUM[ettv]
View Torrent Info: Fargo.S03E02.WEB-DL.x264-FUM[ettv]
View Torrent Info: Blindspot.S02E19.WEB-DL.x264-FUM[ettv]
View Torrent Info: The.100.S04E09.WEB-DL.x264-FUM[ettv]
View Torrent Info: Painkiller (2013) x264 720p UNCUT WEB-DL {Dual Audio} [Hindi ORG DD 2.0   English 2.0] Exclusive By DREDD
View Torrent Info: Chandni Bar 2001 480p NFRip ESub -DDR
View Torrent Info: Bhadram (2014) Bluray 1080p x264 DTSHD 5.1 -DDR
View Torrent Info: Ho Mann Jahaan (2016) 1080p Untouched WEBHD AVC AAC [DDR]
30s
Chat
To add new messages please Login or Register for FREE
Warning! Protect Yourself from Lawsuits and Fines!
Your IP Address is 104.207.136.91.   Location is United States
Your IP Address is visible to EVERYONE. Hide your IP ADDRESS with a VPN while torrenting!
ExtraTorrent strongly recommends using Trust.Zone VPN to anonymize your torrenting. It's FREE!
Hide my IP address!

Extratorrent > Categories > Movies torrents > Movies 4K torrents


Browse Movies torrents

Divergent (2014) 2160p 4K UltraHD BluRay x265 (HEVC 10bit) DTS-HD MA 5.1 -DDR torrent


Download torrent:Download Divergent (2014) 2160p 4K UltraHD BluRay x265 (HEVC 10bit) DTS-HD MA 5.1 -DDR torrentMagnet linkBookmark Torrent: Divergent (2014) 2160p 4K UltraHD BluRay x265 (HEVC 10bit) DTS-HD MA 5.1 -DDR Divergent (2014) 2160p 4K UltraHD BluRay x265 (HEVC 10bit) DTS-HD MA 5.1 -DDR torrent
Info hash:F962874E8C6870A31878CD78AD86C36FA88B8AE9
Category:Categories > Movies torrents > Movies 4K torrents
Trackers:
13   View all torrent trackers >
Health:
 seeds: 88, leechers: 398| Update >
Torrent language:English English
Total Size:63.29 GB
Number of files:
4   View torrent files >
Torrent status:Added by trusted uploader Added by trusted uploader Vip MemberTrusted UploaderET junkieET loverSuperman
Uploader:Vip MemberTrusted UploaderET junkieET loverSuperman
Torrent added:2017-01-08 05:53:35   |   Last edit: 2017-01-09 13:56:37 by
SaM
Users rating:10.0 / 10, total 2 votes.  Latest by: Kitty, Site FriendET junkieET loverSuperman
Divergent (2014) 2160p 4K UltraHD BluRay x265 (HEVC 10bit) DTS-HD MA 5.1 -DDR


Download Divergent (2014) 2160p 4K UltraHD BluRay x265 (HEVC 10bit) DTS-HD MA 5.1 -DDR torrent




Your IP Address is 104.207.136.91.   Location is United States
Your Internet Provider and Government can track your torrent activity!  Hide your IP ADDRESS with a VPN!
ExtraTorrent strongly recommends using Trust.Zone VPN to anonymize your torrenting. It's FREE!

HIDE ME NOW
Torrent Description
ddr_logo.png
ef4db371496e60478ef844c28fedceae.jpg

2160p UHD 4K Blu-Ray Rip
HEVC 10 Bits BT709

English DTSHD-MA 5.1 Audio

English + French Subtitle(s)

SCREENSHOTS
8781d02b47dc2aa6420621bc34d9f8e7.th.png 24448f58126deaaac72abf5f4a0bbb4a.th.png 9d0c18be51c96883faf988a190f1184e.th.png 98b83a55d01901d8ede77212a752d614.th.png 3a426d526c9ee5e334eb251200c8de39.th.png 5e10724b5b99481443f66f42a9c239a1.th.png 37ef8ce1ab517462681bac2a18d581aa.th.png b945e9ac10e232b4655f2ac3d68f8101.th.png

SPECS

Note:
Audio + Subs + Chapter files are from BD50 HD Blu-Ray synced and mixed to UHD-4K Video from ZEUS.

High End CPU + GPU is required to play very high bitrate 4K.
Fully tested with :
- PC with PotPlayer V 1.6 / Xeon Broadwell CPU / NVidia GTX1080
- Nvidia Shield streaming through PLEX on Samsung TV

Format : Matroska
File size : 63.1 GiB
Duration : 2 h 19 min
Overall bit rate : 64.7 Mb/s

Video
Format : HEVC
Format/Info : High Efficiency Video Coding
Format profile : Main [email protected]@Main
Codec ID : V_MPEGH/ISO/HEVC
Duration : 2 h 19 min
Bit rate : 60.8 Mb/s
Width : 3 840 pixels
Height : 2 160 pixels
Display aspect ratio : 16:9
Frame rate mode : Constant
Frame rate : 24.000 FPS
Original frame rate : 23.976 (24000/1001) FPS
Color space : YUV
Chroma subsampling : 4:2:0
Bit depth : 10 bits
Bits/(Pixel*Frame) : 0.306
Stream size : 59.3 GiB (94%)
Language : English
Default : Yes
Forced : No
Color range : Limited
Color primaries : BT.709
Transfer characteristics : BT.709
Matrix coefficients : BT.601

Audio #1
Format : DTS
Format/Info : Digital Theater Systems
Format profile : MA / Core
Mode : 16
Format settings, Endianness : Big
Codec ID : A_DTS
Duration : 2 h 19 min
Bit rate mode : Variable / Constant
Bit rate : 3 924 kb/s / 1 509 kb/s
Channel(s) : 6 channels
Channel positions : Front: L C R, Side: L R, LFE
Sampling rate : 48.0 kHz
Frame rate : 93.750 FPS (512 spf)
Bit depth : 24 bits
Compression mode : Lossless / Lossy
Delay relative to video : 7 ms
Stream size : 3.83 GiB (6%)
Language : English
Default : No
Forced : No

Chapters : YES


SAMPLE Included
A DDR Exclusive

Download Divergent (2014) 2160p 4K UltraHD BluRay x265 (HEVC 10bit) DTS-HD MA 5.1 -DDR torrent


Related Torrents


Comments (please add your comment)
1
posted by Site FriendET junkieET loverSuperman (2017-01-08 08:03:30)
Funky_Axl avatarthanx!


2
posted by ET junkieSuperman (2017-01-09 02:28:13)
boxopus avatarthnx TeamDDR





Home - Browse Torrents - Upload Torrent - Stat - Forum - FAQ - Login
extra-torrent.online is in compliance with copyrights
Can't load ExtraTorrent? Try our official mirrors: etmirror.com - etproxy.com - extratorrentonline.com - extratorrentlive.com
2006-2017 extra-torrent.online3