extra-torrent.online - The Largest Bittorent SystemLogin   |   Register
Latest Articles
Most searched
Hot torrents
First Cams
View Torrent Info: King Arthur Legend of the Sword 2017 HDCAM x264-P2P
View Torrent Info: Snatched 2017 HD-TS x264-CPG
View Torrent Info: Going In Style 2017 HDCAM NEW-SRC XviD-MrGrey
View Torrent Info: The.Fate.of.the.Furious.2017.TC.x264.AC3-ETRG
Hot torrents
XVID DIVX
View Torrent Info: Beauty.And.The.Beast.2017.HDRip.XviD.AC3-EVO
View Torrent Info: Taken.Too.Far.2017.HDRip.XviD.AC3-EVO
View Torrent Info: Sweet.Sweet.Lonely.Girl.2016.HDRip.XviD.AC3-EVO
View Torrent Info: Another.You.2016.HDRip.XViD.AC3-ETRG
Hot torrents
H264 X264
View Torrent Info: Beauty.And.The.Beast.2017.720p.HDRip.X264.AC3-EVO[EtHD]
View Torrent Info: Barely Lethal (2015) 720p BluRay x264 AC3 Soup
View Torrent Info: Logan 2017 1080p WEBRip 1.8 GB - iExTV
View Torrent Info: Sahara.2017.1080p.WEBRip.DD5.1.x264-FGT[EtHD]
Hot torrents
BluRay, 4k UHD
View Torrent Info: The.Fifth.Element.4K.HDR.10bit.BT2020.Dolby.True.HD.Atmos-VISIONPLUSHDR1000
View Torrent Info: The Counsellor (2013) 2160p UHDRip x264 DTS-HD MA - ABI
View Torrent Info: The.Great.Wall.2016.Multi.1080p.BluRay.x264.Atmos.TrueHD7.1-DDR
View Torrent Info: Transpecos.2016.1080p.BluRay.x264-BiPOLAR[EtHD]
Hot torrents
Television
View Torrent Info: The.Flash.2014.S03E22.WEB-DL.x264-FUM[ettv]
View Torrent Info: Prison.Break.S05E07.HDTV.x264-KILLERS[ettv]
View Torrent Info: Marvels.Agents.of.S.H.I.E.L.D.S04E22.HDTV.x264-KILLERS[ettv]
View Torrent Info: Better.Call.Saul.S03E06.WEB-DL.x264-FUM[ettv]
View Torrent Info: Baar Baar Dekho (2016) DVDRIP 1CDRIP x264 AAC 2.0 MSubs [DDR]
View Torrent Info: Road Wars (2015) x264 720p UNCUT BluRay Eng Subs {Dual Audio} [Hindi ORG DD 2.0   English 2.0] Exclusive By DREDD
View Torrent Info: Rock On 2 2016 x264 DvDRip AC3 5.1 MSubs -DDR
View Torrent Info: Badrinath Ki Dulhania (2017) x264 DvDRip AC3 5.1 ESub -DDR
30s
Chat
To add new messages please Login or Register for FREE
Warning! Stop Government from Tracking Your Torrenting!
Your IP Address is 173.244.48.6.   Location is United States
Your Internet Provider and Government can track your internet activity! Hide your IP and LOCATION with a VPN
ExtraTorrent strongly recommends using Trust.Zone VPN to anonymize your torrenting. It's FREE!
HIDE ME NOW

Extratorrent > Categories > Movies torrents > Movies 4K torrents


Browse Movies torrents

Allegiant (2016) 2160p 4K UltraHD BluRay x265 (HEVC 10bit) DTS-HD MA 7.1 -DDR torrent


Download torrent:Download Allegiant (2016) 2160p 4K UltraHD BluRay x265 (HEVC 10bit) DTS-HD MA 7.1 -DDR torrentMagnet linkBookmark Torrent: Allegiant (2016) 2160p 4K UltraHD BluRay x265 (HEVC 10bit) DTS-HD MA 7.1 -DDR Allegiant (2016) 2160p 4K UltraHD BluRay x265 (HEVC 10bit) DTS-HD MA 7.1 -DDR torrent
Info hash:522135878DC1413497361C9750D319B5594499B6
Category:Categories > Movies torrents > Movies 4K torrents
Trackers:
13   View all torrent trackers >
Health:
 seeds: 96, leechers: 240| Update >
Torrent language:English English
Total Size:52.43 GB
Number of files:
4   View torrent files >
Torrent status:Added by trusted uploader Added by trusted uploader Vip MemberTrusted UploaderET junkieET loverSuperman
Uploader:Vip MemberTrusted UploaderET junkieET loverSuperman
Torrent added:2017-01-08 05:58:39   |   Last edit: 2017-01-09 13:56:26 by
SaM
Users rating:10.0 / 10, total 3 votes.  Latest by: , Kitty, Site FriendET junkieET loverSuperman
Allegiant (2016) 2160p 4K UltraHD BluRay x265 (HEVC 10bit) DTS-HD MA 7.1 -DDR


Download Allegiant (2016) 2160p 4K UltraHD BluRay x265 (HEVC 10bit) DTS-HD MA 7.1 -DDR torrent




Your IP Address is 173.244.48.6.   Location is United States
Your Internet Provider and Government can track your torrent activity!  Hide your IP ADDRESS with a VPN!
ExtraTorrent strongly recommends using Trust.Zone VPN to anonymize your torrenting. It's FREE!

HIDE ME NOW
Torrent Description
ddr_logo.png
f2f836007ec6190c9606a50064d63cce.md.jpg

2160p UHD 4K Blu-Ray Rip
HEVC 10 Bits BT709

English DTSHD-MA 7.1 Audio


English + French Subtitle(s)

SCREENSHOTS
28fb8c6f6853bc863e296c40d9f764b5.th.png 71074b688cdd1e8e79b4756c63b73587.th.png 903319ad239bd1dec8eb5cc14bdb054b.th.png 8bbf107b31a07a004fbaf90e9cd1b890.th.png 9e04e8f50a1e817eee46baa98afae91a.th.png e88fc4c35ebe2fae469780185ba394d9.th.png 5875923fea2eeb7537a894ced71b6acf.th.png 16f8807eb13cd158854ba6b06763e353.th.png

SPECS

Note:
Audio + Subs + Chapter files are from BD50 HD Blu-Ray synced and mixed to UHD-4K Video from ZEUS.

High End CPU + GPU is required to play very high bitrate 4K.
Fully tested with :
- PC with PotPlayer V 1.6 / Xeon Broadwell CPU / NVidia GTX1080
- Nvidia Shield streaming through PLEX on Samsung TV

Format : Matroska
File size : 52.2 GiB
Duration : 2 h 0 min
Overall bit rate : 62.0 Mb/s

Video
Format : HEVC
Format/Info : High Efficiency Video Coding
Format profile : Main [email protected]@Main
Codec ID : V_MPEGH/ISO/HEVC
Duration : 2 h 0 min
Bit rate : 59.6 Mb/s
Width : 3 840 pixels
Height : 2 160 pixels
Display aspect ratio : 16:9
Frame rate mode : Constant
Frame rate : 24.000 FPS
Original frame rate : 23.976 (24000/1001) FPS
Color space : YUV
Chroma subsampling : 4:2:0
Bit depth : 10 bits
Bits/(Pixel*Frame) : 0.300
Stream size : 50.2 GiB (96%)
Language : English
Default : Yes
Forced : No
Color range : Limited
Color primaries : BT.709
Transfer characteristics : BT.709
Matrix coefficients : BT.601

Audio #1
Format : DTS
Format/Info : Digital Theater Systems
Format profile : MA / Core
Mode : 16
Format settings, Endianness : Big
Codec ID : A_DTS
Duration : 2 h 0 min
Bit rate mode : Variable / Constant
Bit rate : 2 435 kb/s / 1 509 kb/s
Channel(s) : 8 channels / 6 channels
Channel positions : Front: L C R, Side: L R, Back: L R, LFE / Front: L C R, Side: L R, LFE
Sampling rate : 48.0 kHz
Frame rate : 93.750 FPS (512 spf)
Bit depth : 16 bits
Compression mode : Lossless / Lossy
Delay relative to video : 4 ms
Stream size : 2.05 GiB (4%)
Language : English
Default : No
Forced : No

Chapters : YES


SAMPLE Included
A DDR Exclusive

Download Allegiant (2016) 2160p 4K UltraHD BluRay x265 (HEVC 10bit) DTS-HD MA 7.1 -DDR torrent


Related Torrents


Comments (please add your comment)
1
posted by Site FriendET junkieET loverSuperman (2017-01-08 08:03:31)
Funky_Axl avatarthanx!


2
posted by Kitty (2017-01-08 09:40:31)
Exia avatarthx you


3
posted by Site FriendET junkieET loverSuperman (2017-01-09 02:28:58)
boxopus avatarthnx TeamDDR


4
posted by (2017-01-09 15:33:37)
gabfaith avatarThank you very much. please try to make under 2 gb thank you.


5
posted by (2017-01-10 09:18:44)
No avatarThanks TeamDDR! Excellent quality!

@4: under 2 gb for this quality would really surprise me.


6
posted by Turtle (2017-01-10 14:28:11)
The_Rift avatarWhere can I get a x265 codec? Mine will not play.


7
posted by Trusted Uploadermen (2017-01-10 21:33:37)
cptcrunchzz avatar@gabfaith
You are download a 2160p 4k UHD torrent... Expecting it to be under 2gb is just ridiculous.


8
posted by (2017-01-11 09:53:26)
No avatarHow can this be real? Has someone hacked HDCP2.2?
Can anyone verify?



Loading...


Home - Browse Torrents - Upload Torrent - Stat - Forum - FAQ - Login
extra-torrent.online is in compliance with copyrights
Can't load ExtraTorrent? Try our official mirrors: etmirror.com - etproxy.com - extratorrentonline.com - extratorrentlive.com
2006-2017 extra-torrent.online5