extra-torrent.online - The Largest Bittorent SystemLogin   |   Register
Latest Articles
Most searched
Hot torrents
First Cams
View Torrent Info: Guardians of the Galaxy Vol. 2 2017 NEW HDCAM x264 HQMic-CPG
View Torrent Info: Free Fire 2017 HDCAM x264-CPG
View Torrent Info: The.Fate.of.the.Furious.2017.HDTS.H264.AC3.HQ.Hive-CM8
View Torrent Info: The Boss Baby 2017 720p HD-TS x264 AC3-CPG
Hot torrents
XVID DIVX
View Torrent Info: The.Comedian.2016.HDRip.XViD.AC3-ETRG
View Torrent Info: Ghost.In.The.Shell.2017.HC.HDRip.XviD.AC3-EVO
View Torrent Info: xXx.Return.Of.Xander.Cage.2017.HDRip.XViD-ETRG
View Torrent Info: The.Space.Between.Us.2017.HDRip.XviD.AC3-EVO
Hot torrents
H264 X264
View Torrent Info: xXx.Return.of.Xander.Cage.2017.720p.WEB-DL.H264.AC3-EVO[EtHD]
View Torrent Info: Mostly Sunny Leone 2016 480p Netflix ESub -DDR
View Torrent Info: Land.of.Smiles.2016.720p.BluRay.x264-AN0NYM0US[EtHD]
View Torrent Info: Anguish.2015.LIMITED.720p.BluRay.x264-JustWatch[EtHD]
Hot torrents
BluRay, 4k UHD
View Torrent Info: Fallen.2016.BluRay.1080p.x264.TrueHD5.1-DDR
View Torrent Info: War Dogs 2016 1080p BluRay x264 DTSHD 5.1 -DDR
View Torrent Info: Thor The Dark World 2013 1080p BluRay x264 Multi DTSHD 7.1 -DDR
View Torrent Info: The Seventh Sign 1988 1080p BluRay x264 DDS 2.0 -DDR
Hot torrents
Television
View Torrent Info: Better.Call.Saul.S03E04.WEB-DL.x264-FUM[ettv]
View Torrent Info: Supergirl.S02E19.WEB-DL.x264-FUM[ettv]
View Torrent Info: Gotham.S03E16.HDTV.x264-KILLERS[ettv]
View Torrent Info: Taken.2017.S01E10.HDTV.x264-KILLERS[ettv]
View Torrent Info: Ghost Story (1981) UNRATED 720p BluRay x264 Eng Subs [Dual Audio] [Hindi 2.0 - English 2.0] -=!Dr.STAR!=-
View Torrent Info: Bengali - Abby Sen 2015 480p Netflix ESub -DDR
View Torrent Info: [ 18] Private Vices Public Pleasures (1976) BRRip 720p x264 [Dual Audio][Italian English]--prisak~~{HKRG
View Torrent Info: Attack Of The Killer Donuts (2016) x264 720p UNRATED WEB-DL {Dual Audio} [Hindi ORG DD 2.0   German 2.0] Exclusive By DREDD
30s
Chat
To add new messages please Login or Register for FREE
Warning! Stop Government from Tracking Your Torrenting!
Your IP Address is 46.166.138.150.   Location is Netherlands
Your Internet Provider and Government can track your internet activity! Hide your IP and LOCATION with a VPN
ExtraTorrent strongly recommends using Trust.Zone VPN to anonymize your torrenting. It's FREE!
HIDE ME NOW

Extratorrent > Categories > Movies torrents > Horror torrents


Browse Movies torrents

OUIJA- Origin Of Evil (2016) HQ 1080p BluRay x264 DTSHD-MA 5.1 -DDR torrent


Download torrent:Download OUIJA- Origin Of Evil (2016) HQ 1080p BluRay x264 DTSHD-MA 5.1 -DDR torrentMagnet linkBookmark Torrent: OUIJA- Origin Of Evil (2016) HQ 1080p BluRay x264 DTSHD-MA 5.1 -DDR OUIJA- Origin Of Evil (2016) HQ 1080p BluRay x264 DTSHD-MA 5.1 -DDR torrent
Info hash:1A24CD336B3FECBE89E4E1AFDC4E8BF76FC4C1F6
Category:Categories > Movies torrents > Horror torrents
Trackers:
13   View all torrent trackers >
Health:
 seeds: 41, leechers: 67| Update >
Torrent language:English English
Total Size:9.35 GB
Number of files:
4   View torrent files >
Torrent status:Added by trusted uploader Added by trusted uploader Vip MemberTrusted UploaderET junkieET loverSuperman
Uploader:Vip MemberTrusted UploaderET junkieET loverSuperman
Torrent added:2017-01-08 21:52:51   |   Last edit: 2017-01-09 11:59:20 by
SaM
Users rating:10.0 / 10, total 1 votes.  Latest by: Site FriendET junkieET loverSuperman
OUIJA- Origin Of Evil (2016) HQ 1080p BluRay x264 DTSHD-MA 5.1 -DDR


Download OUIJA- Origin Of Evil (2016) HQ 1080p BluRay x264 DTSHD-MA 5.1 -DDR torrent




Your IP Address is 46.166.138.150.   Location is Netherlands
Your Internet Provider and Government can track your torrent activity!  Hide your IP ADDRESS with a VPN!
ExtraTorrent strongly recommends using Trust.Zone VPN to anonymize your torrenting. It's FREE!

HIDE ME NOW
Torrent Description
ddr_logo.png
7818f6fb2eaf2c34f08f5f931949a3b2.md.jpg

HQ 1080p Blu-Ray Rip x264

English DTSHD-MA 5.1 Audio

English Sub


SCREENSHOTS
ca0c207004c92dec7c25e8010b013d68.th.png acecfc93ca624cbea120c2dd623a1765.th.png 8c389be8158ee2e9a516a7977d1d3206.th.png bab2fd030908aacaca7adad21e463155.th.png 01fb458a828fccb8eec6b5bd04ffb97e.th.png b4f99c4ba60d148b2bd8a0d167f94417.th.png 49dbc5c8ec7a4be9818b80a9e171a9f5.th.png 549829256f54dbe6cdd4300b7fa13aec.th.png c926d6b449c31eeb88b59e1d7e09cbfb.th.png 428b18271b02a62031f8504c075e13f1.th.png 49a30528e3da88650f8504cd2484c49d.th.png

SPECS

Source: Blu-ray BD50

Format : Matroska
File size : 9.30 GiB
Duration : 1 h 38 min
Overall bit rate : 13.5 Mb/s

Video
Format : AVC
Format/Info : Advanced Video Codec
Format profile : [email protected]
Format settings, CABAC : Yes
Format settings, ReFrames : 4 frames
Codec ID : V_MPEG4/ISO/AVC
Duration : 1 h 38 min
Bit rate : 10 000 kb/s
Width : 1 920 pixels
Height : 1 036 pixels
Display aspect ratio : 1.85:1
Frame rate mode : Constant
Frame rate : 23.976 (24000/1001) FPS
Color space : YUV
Chroma subsampling : 4:2:0
Bit depth : 8 bits
Scan type : Progressive
Bits/(Pixel*Frame) : 0.210
Stream size : 6.91 GiB (74%)
Default : Yes
Forced : No
Color range : Limited
Color primaries : BT.709
Transfer characteristics : BT.709
Matrix coefficients : BT.709

Audio #1
Format : DTS
Format/Info : Digital Theater Systems
Format profile : MA / Core
Mode : 16
Format settings, Endianness : Big
Codec ID : A_DTS
Duration : 1 h 38 min
Bit rate mode : Variable / Constant
Bit rate : 3 455 kb/s / 1 509 kb/s
Channel(s) : 6 channels
Channel positions : Front: L C R, Side: L R, LFE
Sampling rate : 48.0 kHz
Frame rate : 93.750 FPS (512 spf)
Bit depth : 24 bits
Compression mode : Lossless / Lossy
Stream size : 2.39 GiB (26%)
Language : English
Default : Yes
Forced : No

Chapters : YES

SAMPLE Included

A DDR Exclusive Encode

Download OUIJA- Origin Of Evil (2016) HQ 1080p BluRay x264 DTSHD-MA 5.1 -DDR torrent


Related Torrents


Comments (please add your comment)
1
posted by Site FriendET junkieET loverSuperman (2017-01-09 07:07:30)
Funky_Axl avatarthank you





Home - Browse Torrents - Upload Torrent - Stat - Forum - FAQ - Login
extra-torrent.online is in compliance with copyrights
Can't load ExtraTorrent? Try our official mirrors: etmirror.com - etproxy.com - extratorrentonline.com - extratorrentlive.com
2006-2017 extra-torrent.online4