extra-torrent.online - The Largest Bittorent SystemLogin   |   Register
Latest Articles
Most searched
Hot torrents
First Cams
View Torrent Info: The Fate of the Furious 2017 HD-TS x264 AC3-CPG
View Torrent Info: The Boss Baby 2017 720p HD-TS x264 AC3-CPG
View Torrent Info: Before I Fall 2017 HDCAM 700MB x264-DiRG
View Torrent Info: The Belko Experiment 2017 HDCAM 700MB x264-DiRG
Hot torrents
XVID DIVX
View Torrent Info: Joes.War.2017.HDRip.XviD.AC3-EVO
View Torrent Info: The.Levelling.2016.HDRip.XviD.AC3-EVO
View Torrent Info: Fifty.Shades.Darker.2017.UNRATED.HDRip.XviD.AC3-EVO
View Torrent Info: After.the.Reality.2016.HDRip.XviD.AC3-EVO
Hot torrents
H264 X264
View Torrent Info: Fifty.Shades.Darker.2017.UNRATED.720p.WEB-DL.H264.AC3-EVO[EtHD]
View Torrent Info: Jurassic World (2015) 720p BluRay x264 DTS Soup
View Torrent Info: Wolves.At.the.Door.2016.720p.WEB-DL.H264.AC3-ETRG
View Torrent Info: The.Legend.of.Ben.Hall.2016.720p.BluRay.x264-ENCOUNTERS[EtHD]
Hot torrents
BluRay, 4k UHD
View Torrent Info: The Legend of Ben Hall 2016 Bluray 1080p x264 DTSHD5.1 -DDR
View Torrent Info: Hacker.2016.BluRay.1080p.AVC.DTS-HD.MA5.1-DDR
View Torrent Info: Carmen.1984.1080p.Blu-ray.x264.DTSHD.5.1-DDR
View Torrent Info: Planet Earth II S01E05-06 HEVC 2160p UHD 360? BluRay HDR DTSHD5.1-DDR
Hot torrents
Television
View Torrent Info: Better.Call.Saul.S03E03.WEB-DL.x264-FUM[ettv]
View Torrent Info: Supergirl.S02E18.WEB-DL.x264-FUM[ettv]
View Torrent Info: Bates.Motel.S05E10.WEB-DL.x264-FUM[ettv]
View Torrent Info: Gotham.S03E15.REPACK.HDTV.x264-KILLERS[ettv]
View Torrent Info: Bhaskar The Rascal (2015) Bluray 1080p x264 DTSHD 5.1 -DDR
View Torrent Info: Sing 2016 720p BluRay Hindi DD 5.1 x264-SnowDoN
View Torrent Info: House II : The Second Story (1987) x264 720p UNCUT BluRay Eng Subs {Dual Audio} [Hindi ORG DD 2.0   English 5.1] Exclusive By DREDD
View Torrent Info: Winner (2017) - 1080p - WEBRip - x264 - AC3 - ESub - [DDR]
30s
Chat
To add new messages please Login or Register for FREE
Warning! Use a VPN When Downloading Torrents!
Your IP Address is 108.61.228.102.   Location is United States
Your Internet Provider and Government can track your torrent activity!  Hide your IP ADDRESS with a VPN!
ExtraTorrent strongly recommends using Trust.Zone VPN to anonymize your torrenting. It's FREE!
Get VPN Now for FREE!

Extratorrent > Categories > Movies torrents > War torrents


Browse Movies torrents

U-571 (2000) HQ 1080p Blu-Ray x264 DTSHD-MA 5.1 -DDR torrent


Download torrent:Download U-571 (2000) HQ 1080p Blu-Ray x264 DTSHD-MA 5.1 -DDR torrentMagnet linkBookmark Torrent: U-571 (2000) HQ 1080p Blu-Ray x264 DTSHD-MA 5.1 -DDR U-571 (2000) HQ 1080p Blu-Ray x264 DTSHD-MA 5.1 -DDR torrent
Info hash:689C8DDD0CFE9E45E574D61EB75735F9D260F256
Category:Categories > Movies torrents > War torrents
Trackers:
13   View all torrent trackers >
Health:
 seeds: 86, leechers: 50| Update >
Torrent language:English English
Total Size:11.76 GB
Number of files:
4   View torrent files >
Torrent status:Added by trusted uploader Added by trusted uploader Vip MemberTrusted UploaderET junkieET loverSuperman
Uploader:Vip MemberTrusted UploaderET junkieET loverSuperman
Torrent added:2017-01-08 23:51:48
Users rating:7.5 / 10, total 2 votes.  Latest by: ET junkieET loverSupermanmenTurtle, Site FriendET junkieET loverSuperman
U-571 (2000) HQ 1080p Blu-Ray x264 DTSHD-MA 5.1 -DDR


Download U-571 (2000) HQ 1080p Blu-Ray x264 DTSHD-MA 5.1 -DDR torrent




Your IP Address is 108.61.228.102.   Location is United States
Your Internet Provider and Government can track your torrent activity!  Hide your IP ADDRESS with a VPN!
ExtraTorrent strongly recommends using Trust.Zone VPN to anonymize your torrenting. It's FREE!

HIDE ME NOW
Torrent Description
ddr_logo.png
77468e9d95406476981aff2c4be20023.jpg

HQ 1080p Blu-Ray Rip x264

English DTSHD-MA 5.1 Audio

English + French + Portugues (Bresil) Subs

SCREENSHOTS
45aaaceb208cbd6fe412d29e453b8bbc.th.png b1e3099b297e7507effff51b1f1da8ec.th.png 2e2025b9957b9e84279207adef633255.th.png 1ee39aea78210304913c2305687c18ee.th.png 07be0065d99d179ece8785c7245b3dea.th.png acb2a9018b24daf3e2c3742a6eeff652.th.png a282a4a933c4a3714eacdf08db0210b5.th.png 402ab1842621eefbb4169b0ee2482c42.th.png 6acd7ddfbbd247c4e63e2526a3158705.th.png 69c302674cca45e4dfe18e0fa0ca44d6.th.png

SPECS


Source: Blu-ray BD50
Note: Source blu-ray doesnt have english forced sub for the 1st 10 mins of the movie.
You will need to enable the normal english sub as a forced sub for these german only few minutes.

Format : Matroska
File size : 11.7 GiB
Duration : 1 h 56 min
Overall bit rate : 14.4 Mb/s

Video
Format : AVC
Format/Info : Advanced Video Codec
Format profile : [email protected]
Format settings, CABAC : Yes
Format settings, ReFrames : 5 frames
Codec ID : V_MPEG4/ISO/AVC
Duration : 1 h 56 min
Bit rate : 10 000 kb/s
Width : 1 920 pixels
Height : 816 pixels
Display aspect ratio : 2.35:1
Frame rate mode : Constant
Frame rate : 24.000 FPS
Color space : YUV
Chroma subsampling : 4:2:0
Bit depth : 8 bits
Scan type : Progressive
Bits/(Pixel*Frame) : 0.266
Stream size : 8.11 GiB (69%)
Default : Yes
Forced : No
Color range : Limited
Color primaries : BT.709
Transfer characteristics : BT.709
Matrix coefficients : BT.709

Audio #1
Format : DTS
Format/Info : Digital Theater Systems
Format profile : MA / Core
Mode : 16
Format settings, Endianness : Big
Codec ID : A_DTS
Duration : 1 h 56 min
Bit rate mode : Variable / Constant
Bit rate : 4 401 kb/s / 1 509 kb/s
Channel(s) : 6 channels
Channel positions : Front: L C R, Side: L R, LFE
Sampling rate : 48.0 kHz
Frame rate : 93.750 FPS (512 spf)
Bit depth : 24 bits
Compression mode : Lossless / Lossy
Stream size : 3.58 GiB (31%)
Language : English
Default : Yes
Forced : No

Chapters : YES

SAMPLE Included

A DDR Exclusive Encode

Download U-571 (2000) HQ 1080p Blu-Ray x264 DTSHD-MA 5.1 -DDR torrent


Related Torrents


Comments (please add your comment)
1
posted by Turtle (2017-01-09 05:35:18)
No avatarMovie well made but it is contradictory to the facts.
Besides contradiction it is well watchable.
Thanks up loaders.


2
posted by Site FriendET junkieET loverSuperman (2017-01-09 07:11:45)
Funky_Axl avatarawesome, i haven't seen this, thanx


3
posted by (2017-01-14 19:13:46)
Bananaman1973 avatarThe American's loose use of the truth about the first enigma machine being captured is well documented.This film caused trans-Atlantic strain because of the shameless Americanisation of the truth. This ended up being brought up in the Houses of parliament as U571 was a fabrication based loosely on the British Slavonic collaboration to capture the first Enigma. I have personally spoken with one of the Czechoslovak sailors which assisted in the capture of the enigma. He was utterly incensed by this movie. Later the Anglo-American agreements pressed home and forced the movie makers to retract the 'true story' element and begrudgingly, they added a minor 'apology' at the beginning of the film. stating 'inspired by true events' which is still shameless however, we are in a revisionist erea. And people also still believe hitler killed hiself.. even though fr fifty years The CIA and FBI followed him across spain and Argentina. #greywolf. basicly, this film is a farce of American self adulation which has insulted the rel heros in their last years of life.





Home - Browse Torrents - Upload Torrent - Stat - Forum - FAQ - Login
extra-torrent.online is in compliance with copyrights
Can't load ExtraTorrent? Try our official mirrors: etmirror.com - etproxy.com - extratorrentonline.com - extratorrentlive.com
2006-2017 extra-torrent.online2