extra-torrent.online - The Largest Bittorent SystemLogin   |   Register
Latest Articles
Most searched
Hot torrents
First Cams
View Torrent Info: The Fate of the Furious 2017 HD-TS x264 AC3-CPG
View Torrent Info: The Boss Baby 2017 720p HD-TS x264 AC3-CPG
View Torrent Info: Before I Fall 2017 HDCAM 700MB x264-DiRG
View Torrent Info: The Belko Experiment 2017 HDCAM 700MB x264-DiRG
Hot torrents
XVID DIVX
View Torrent Info: The.Void.2016.BRRip.XviD.AC3-EVO
View Torrent Info: Joes.War.2017.HDRip.XviD.AC3-EVO
View Torrent Info: The.Levelling.2016.HDRip.XviD.AC3-EVO
View Torrent Info: Fifty.Shades.Darker.2017.UNRATED.HDRip.XviD.AC3-EVO
Hot torrents
H264 X264
View Torrent Info: Fifty.Shades.Darker.2017.UNRATED.720p.WEB-DL.H264.AC3-EVO[EtHD]
View Torrent Info: Jurassic World (2015) 720p BluRay x264 DTS Soup
View Torrent Info: Wolves.At.the.Door.2016.720p.WEB-DL.H264.AC3-ETRG
View Torrent Info: The.Legend.of.Ben.Hall.2016.720p.BluRay.x264-ENCOUNTERS[EtHD]
Hot torrents
BluRay, 4k UHD
View Torrent Info: The Legend of Ben Hall 2016 Bluray 1080p x264 DTSHD5.1 -DDR
View Torrent Info: Hacker.2016.BluRay.1080p.AVC.DTS-HD.MA5.1-DDR
View Torrent Info: Carmen.1984.1080p.Blu-ray.x264.DTSHD.5.1-DDR
View Torrent Info: Planet Earth II S01E05-06 HEVC 2160p UHD 360? BluRay HDR DTSHD5.1-DDR
Hot torrents
Television
View Torrent Info: The.Flash.2014.S03E19.WEB-DL.x264-FUM[ettv]
View Torrent Info: Prison.Break.S05E04.HDTV.x264-KILLERS[ettv]
View Torrent Info: Marvels.Agents.of.S.H.I.E.L.D.S04E19.HDTV.x264-KILLERS[ettv]
View Torrent Info: The.Americans.2013.S05E08.HDTV.x264-KILLERS[ettv]
View Torrent Info: Bhaskar The Rascal (2015) Bluray 1080p x264 DTSHD 5.1 -DDR
View Torrent Info: Sing 2016 720p BluRay Hindi DD 5.1 x264-SnowDoN
View Torrent Info: House II : The Second Story (1987) x264 720p UNCUT BluRay Eng Subs {Dual Audio} [Hindi ORG DD 2.0   English 5.1] Exclusive By DREDD
View Torrent Info: Winner (2017) - 1080p - WEBRip - x264 - AC3 - ESub - [DDR]
30s
Chat
To add new messages please Login or Register for FREE
Warning! Stop Government from Tracking Your Torrenting!
Your IP Address is 209.197.30.175.   Location is United States
Your Internet Provider and Government can track your internet activity! Hide your IP and LOCATION with a VPN
ExtraTorrent strongly recommends using Trust.Zone VPN to anonymize your torrenting. It's FREE!
HIDE ME NOW

Extratorrent > Categories > Movies torrents > Thriller torrents


Browse Movies torrents

Collide (2016) 1080p Blu-Ray x264 DTSHD-MA 5.1 -DDR torrent


Download torrent:Download Collide (2016) 1080p Blu-Ray x264 DTSHD-MA 5.1 -DDR torrentMagnet linkBookmark Torrent: Collide (2016) 1080p Blu-Ray x264 DTSHD-MA 5.1 -DDR Collide (2016) 1080p Blu-Ray x264 DTSHD-MA 5.1 -DDR torrent
Info hash:F260893574091200C91EB56FA43730E58D9CEF34
Category:Categories > Movies torrents > Thriller torrents
Trackers:
13   View all torrent trackers >
Health:
 seeds: 956, leechers: 611| Update >
Torrent language:English English
Total Size:8.62 GB
Number of files:
4   View torrent files >
Torrent status:Added by trusted uploader Added by trusted uploader Vip MemberTrusted UploaderET junkieET loverSuperman
Uploader:Vip MemberTrusted UploaderET junkieET loverSuperman
Torrent added:2017-01-10 14:29:31   |   Last edit: 2017-01-11 13:31:39 by
SaM
Users rating:---, not rated. please login to rate.
Collide (2016) 1080p Blu-Ray x264 DTSHD-MA 5.1 -DDR


Download Collide (2016) 1080p Blu-Ray x264 DTSHD-MA 5.1 -DDR torrent




Your IP Address is 209.197.30.175.   Location is United States
Your Internet Provider and Government can track your torrent activity!  Hide your IP ADDRESS with a VPN!
ExtraTorrent strongly recommends using Trust.Zone VPN to anonymize your torrenting. It's FREE!

HIDE ME NOW
Torrent Description
ddr_logo.png
5284eb47cc2b922c9c3817da0b87c164.md.jpg

HQ 1080p Blu-Ray Rip x264

English DTSHD-MA 5.1 Audio

SCREENSHOTS
3d51a169f2261565a4020ae22dd682e6.th.png f4a6d54016ada26932486740291e1c61.th.png e4a11131c376e10e32d06c3738feb314.th.png f0f61baefaa9bbba2eec953b2d3fa423.th.png b0d59a84941db965457e48cc7cda2ac9.th.png 5f7288f4fa7ff31d40efdce62a3204eb.th.png

SPECS


Source: Blu-ray BD50

Format : Matroska
File size : 8.59 GiB
Duration : 1 h 38 min
Overall bit rate : 12.5 Mb/s

Video
Format : AVC
Format/Info : Advanced Video Codec
Format profile : [email protected]
Format settings, CABAC : Yes
Format settings, ReFrames : 5 frames
Codec ID : V_MPEG4/ISO/AVC
Duration : 1 h 38 min
Bit rate : 10 000 kb/s
Width : 1 920 pixels
Height : 800 pixels
Display aspect ratio : 2.40:1
Frame rate mode : Constant
Frame rate : 23.976 (24000/1001) FPS
Color space : YUV
Chroma subsampling : 4:2:0
Bit depth : 8 bits
Scan type : Progressive
Bits/(Pixel*Frame) : 0.272
Stream size : 6.90 GiB (80%)
Default : Yes
Forced : No
Color range : Limited
Color primaries : BT.709
Transfer characteristics : BT.709
Matrix coefficients : BT.709

Audio #1
Format : DTS
Format/Info : Digital Theater Systems
Format profile : MA / Core
Mode : 16
Format settings, Endianness : Big
Codec ID : A_DTS
Duration : 1 h 38 min
Bit rate mode : Variable / Constant
Bit rate : 2 454 kb/s / 1 509 kb/s
Channel(s) : 6 channels
Channel positions : Front: L C R, Side: L R, LFE
Sampling rate : 48.0 kHz
Frame rate : 93.750 FPS (512 spf)
Bit depth : 16 bits
Compression mode : Lossless / Lossy
Stream size : 1.69 GiB (20%)
Language : English
Default : Yes
Forced : No

Chapters : YES

SAMPLE Included

A DDR Exclusive Encode

Download Collide (2016) 1080p Blu-Ray x264 DTSHD-MA 5.1 -DDR torrent


Related Torrents

Added Size Health
DownloadMagnet linkEnglish Collide 2016 1080p BluRay x264 DTS-JYK 10.00 in Action, by 99d2.50 GB------
DownloadMagnet linkEnglish Collide.2016.720p.BluRay.DTS.x264-iFT[EtHD] in Drama, by 104d5.59 GB264371
DownloadMagnet linkEnglish Collide.2016.1080p.BRRip.x264.AAC-ETRG in Action, by 116d1.45 GB24352
DownloadMagnet linkEnglish Collide 2016 1080p BRRip 1.4 GB - iExTV 10.00 in Action, by 116d1.40 GB25
DownloadMagnet linkEnglish Collide (2016) 1080p BluRay - 6CH - 1.85GB - ShAaNiG 10.00 in Action, by 117d1.85 GB817422



Comments (please add your comment)
1
posted by ET junkieSuperman (2017-01-10 15:03:10)
boxopus avatarthnx TeamDDR


2
posted by Turtle (2017-01-12 09:47:14)
No avatarGood movie off course.
Thanks up loaders.


3
posted by ET babyET junkie (2017-01-12 15:11:41)
Sagittarius_Boy avatarTy TeamDDR.......





Home - Browse Torrents - Upload Torrent - Stat - Forum - FAQ - Login
extra-torrent.online is in compliance with copyrights
Can't load ExtraTorrent? Try our official mirrors: etmirror.com - etproxy.com - extratorrentonline.com - extratorrentlive.com
2006-2017 extra-torrent.online3