extra-torrent.online - The Largest Bittorent SystemLogin   |   Register
Latest Articles
Most searched
Hot torrents
First Cams
View Torrent Info: Beauty and The Beast 2017 720p HD-TS x264-CPG
View Torrent Info: Kong.Skull.Island.2017.CAM.XviD-VAiN
View Torrent Info: The Shack 2017 HDCAM x264-iMLEAVING
View Torrent Info: T2.Trainspotting.2017.CAM.XViD-ETRG
Hot torrents
XVID DIVX
View Torrent Info: Bitter.Harvest.2017.BRRip.XViD-ETRG
View Torrent Info: We.Dont.Belong.Here.2017.DVDRip.XviD.AC3-EVO
View Torrent Info: From.a.House.on.Willow.Street.2016.HDRip.XviD.AC3-EVO
View Torrent Info: The.Space.Between.Us.2017.HC.HDRip.XViD.AC3-ETRG
Hot torrents
H264 X264
View Torrent Info: Moana.2016.BluRay.1080p.DTS.AC3.x264-ETRG
View Torrent Info: Assassins.Creed.2016.BluRay.720p.DTS.AC3.x264-ETRG
View Torrent Info: From.a.House.on.Willow.Street.2016.720p.WEBRip.x264.AAC-ETRG
View Torrent Info: Hidden.Figures.2016.720p.BRRip.x264.AAC-ETRG
Hot torrents
BluRay, 4k UHD
View Torrent Info: Bad Santa-2 2016 Multi UHD 2160p BluRay HEVC HDR DTSHD 5.1 -DDR
View Torrent Info: The.Chamber.2016.BluRay.1080p.x264.DTSHD5.1-DDR
View Torrent Info: Gladiator 2000 Paramount Re-Issue Blu-ray 1080p x264 DTSHD 5.1 -DDR
View Torrent Info: Resident Evil The Final Chapter 2016 Multi 1080pBluRay x264 DTSHD 7.1 -DDR
Hot torrents
Television
View Torrent Info: The.Originals.S04E02.HDTV.x264-KILLERS[ettv]
View Torrent Info: The.Blacklist.Redemption.S01E05.HDTV.x264-KILLERS[ettv]
View Torrent Info: The.Last.Kingdom.S02E02.HDTV.x264-MTB[ettv]
View Torrent Info: Greys.Anatomy.S13E17.HDTV.x264-LOL[ettv]
View Torrent Info: Trapped 2017 1GB DesiPDvD x264 -DDR
View Torrent Info: Phillauri 2017 1GB DesiSCR x264 -DDR
View Torrent Info: Assassins.Creed.2016.1080p.BRRip.x264.Turkish.AC3-ETRG
View Torrent Info: Fantastic Beasts and Where to Find Them 2016 720p BluRay Turkish and English DUAL DD 5.1 x264-aXeL
30s
Chat
To add new messages please Login or Register for FREE
Warning! Use a VPN When Downloading Torrents!
Your IP Address is 81.171.71.78.   Location is Netherlands
Your Internet Provider and Government can track your torrent activity!  Hide your IP ADDRESS with a VPN!
ExtraTorrent strongly recommends using Trust.Zone VPN to anonymize your torrenting. It's FREE!
Get VPN Now for FREE!

Extratorrent > Categories > Movies torrents > Bollywood/Desi torrents


Browse Movies torrents

Patel.for.Sale.2016.Hindi.1080p.WEB-DL.H264.AAC2.0-DDR torrent


Download torrent:Download Patel.for.Sale.2016.Hindi.1080p.WEB-DL.H264.AAC2.0-DDR torrentMagnet linkBookmark Torrent: Patel.for.Sale.2016.Hindi.1080p.WEB-DL.H264.AAC2.0-DDR Patel.for.Sale.2016.Hindi.1080p.WEB-DL.H264.AAC2.0-DDR torrent
Info hash:F27FE0357DEFD3CEE31662F92F4AC6747A072FDD
Category:Categories > Movies torrents > Bollywood/Desi torrents
Trackers:
13   View all torrent trackers >
Health:
 seeds: 1149, leechers: 1710| Update >
Torrent language:Hindi Hindi
Total Size:2.70 GB
Number of files:
1   View torrent files >
Torrent status:Added by trusted uploader Added by trusted uploader Vip MemberTrusted UploaderET junkieET loverSuperman
Uploader:Vip MemberTrusted UploaderET junkieET loverSuperman
Torrent added:2017-01-10 20:08:54
Users rating:10.0 / 10, total 3 votes.  Latest by: , ET junkieET lover,
Patel.for.Sale.2016.Hindi.1080p.WEB-DL.H264.AAC2.0-DDR


Download Patel.for.Sale.2016.Hindi.1080p.WEB-DL.H264.AAC2.0-DDR torrent




Your IP Address is 81.171.71.78.   Location is Netherlands
Your Internet Provider and Government can track your torrent activity!  Hide your IP ADDRESS with a VPN!
ExtraTorrent strongly recommends using Trust.Zone VPN to anonymize your torrenting. It's FREE!

HIDE ME NOW
Torrent Description
DDR-28.png

~ Patel.for.Sale ~

~ Hindi ~

** 1080p / WEB-DL / H264 / AAC2.0 **


41a8308676a61321df9494d08de56d3c.md.jpg


Code:
General Complete name : Patel.for.Sale.2016.1080p.WEB-DL.H264.AAC2.0-DDR.mkv Format : Matroska Format version : Version 4 / Version 2 File size : 2.70 GiB Duration : 2 h 2 min Overall bit rate : 3 161 kb/s Encoded date : UTC 2017-01-10 19:33:21 Writing application : mkvmerge v9.7.1 ('Pandemonium') 64bit Writing library : libebml v1.3.4 + libmatroska v1.4.5 Video ID : 1 Format : AVC Format/Info : Advanced Video Codec Format profile : [email protected] Format settings, CABAC : Yes Format settings, ReFrames : 4 frames Codec ID : V_MPEG4/ISO/AVC Duration : 2 h 2 min Bit rate : 2 999 kb/s Width : 1 920 pixels Height : 1 080 pixels Display aspect ratio : 16:9 Frame rate mode : Constant Frame rate : 24.000 FPS Color space : YUV Chroma subsampling : 4:2:0 Bit depth : 8 bits Scan type : Progressive Bits/(Pixel*Frame) : 0.060 Stream size : 2.56 GiB (95%) Default : Yes Forced : No Audio ID : 2 Format : AAC Format/Info : Advanced Audio Codec Format profile : LC Codec ID : A_AAC Duration : 2 h 2 min Bit rate : 160 kb/s Channel(s) : 2 channels Channel positions : Front: L R Sampling rate : 44.1 kHz Frame rate : 43.066 FPS (1024 spf) Compression mode : Lossy Stream size : 140 MiB (5%) Default : Yes Forced : No

ddrss.png


2627834c2e5ccdb3a04e3e9e5c9786ca.th.png cc8ea5bf7e4440f9e731448cf5cecb22.th.png 275049d2b8bf0ab793db426d3b238f05.th.png 8a8330b286566ad1d299b6ddbf0f2962.th.png 21b20deac283211ade59ece7c6dd18a0.th.png ad9a1111d5d1f93a776d5201782c1a30.th.png b8e18c6f4d0168db23274ff635372873.th.png 66c72299f9aa9855f30de7945a972658.th.png 61072b00ce3ad4f7caa7ebe043bac34d.th.png



A DDR Exclusive Release...

Download Patel.for.Sale.2016.Hindi.1080p.WEB-DL.H264.AAC2.0-DDR torrent

Comments (please add your comment)
1
posted by (2017-01-11 04:46:18)
devasis avatarThanks FOr Lovely Share........TYSM


2
posted by (2017-01-11 05:23:45)
Indiangamer007 avatarPlease upload more Telugu and Tamil movies with subs in original language....


3
posted by (2017-01-11 08:15:24)
rohit98 avatarThanks DDR Bro..


4
posted by (2017-01-11 11:19:22)
No avatarthanks


5
posted by ET junkieET lover (2017-01-11 14:01:39)
satyajit93 avatarThanks DDR...


6
posted by (2017-01-25 20:58:48)
DFor_DeepakChaturvedi avatarThanks UPLOADER for this one.....Patel.for.Sale.2016.Hindi.1080p.WEB-DL.H264.AAC2.0-DDR torrent





Home - Browse Torrents - Upload Torrent - Stat - Forum - FAQ - Login
extra-torrent.online is in compliance with copyrights
BitCoin: 12DiyqsWhENahDzdhdYsRrCw8FPQVcCkcm
Can't load ExtraTorrent? Try our official mirrors: etmirror.com - etproxy.com - extratorrentonline.com - extratorrentlive.com
2006-2017 extra-torrent.online5