extra-torrent.online - The Largest Bittorent SystemLogin   |   Register
Latest Articles
Most searched
Hot torrents
First Cams
View Torrent Info: Beauty and The Beast 2017 720p HD-TS x264-CPG
View Torrent Info: Kong.Skull.Island.2017.CAM.XviD-VAiN
View Torrent Info: The Shack 2017 HDCAM x264-iMLEAVING
View Torrent Info: T2.Trainspotting.2017.CAM.XViD-ETRG
Hot torrents
XVID DIVX
View Torrent Info: Bitter.Harvest.2017.BRRip.XViD-ETRG
View Torrent Info: We.Dont.Belong.Here.2017.DVDRip.XviD.AC3-EVO
View Torrent Info: From.a.House.on.Willow.Street.2016.HDRip.XviD.AC3-EVO
View Torrent Info: The.Space.Between.Us.2017.HC.HDRip.XViD.AC3-ETRG
Hot torrents
H264 X264
View Torrent Info: Moana.2016.BluRay.1080p.DTS.AC3.x264-ETRG
View Torrent Info: Assassins.Creed.2016.BluRay.720p.DTS.AC3.x264-ETRG
View Torrent Info: From.a.House.on.Willow.Street.2016.720p.WEBRip.x264.AAC-ETRG
View Torrent Info: Hidden.Figures.2016.720p.BRRip.x264.AAC-ETRG
Hot torrents
BluRay, 4k UHD
View Torrent Info: Bad Santa-2 2016 Multi UHD 2160p BluRay HEVC HDR DTSHD 5.1 -DDR
View Torrent Info: The.Chamber.2016.BluRay.1080p.x264.DTSHD5.1-DDR
View Torrent Info: Gladiator 2000 Paramount Re-Issue Blu-ray 1080p x264 DTSHD 5.1 -DDR
View Torrent Info: Resident Evil The Final Chapter 2016 Multi 1080pBluRay x264 DTSHD 7.1 -DDR
Hot torrents
Television
View Torrent Info: The.Originals.S04E02.HDTV.x264-KILLERS[ettv]
View Torrent Info: The.Blacklist.Redemption.S01E05.HDTV.x264-KILLERS[ettv]
View Torrent Info: The.Last.Kingdom.S02E02.HDTV.x264-MTB[ettv]
View Torrent Info: Greys.Anatomy.S13E17.HDTV.x264-LOL[ettv]
View Torrent Info: Trapped 2017 1GB DesiPDvD x264 -DDR
View Torrent Info: Phillauri 2017 1GB DesiSCR x264 -DDR
View Torrent Info: Assassins.Creed.2016.1080p.BRRip.x264.Turkish.AC3-ETRG
View Torrent Info: Fantastic Beasts and Where to Find Them 2016 720p BluRay Turkish and English DUAL DD 5.1 x264-aXeL
30s
Chat
To add new messages please Login or Register for FREE
Warning! Use a VPN When Downloading Torrents!
Your IP Address is 109.201.154.153.   Location is Netherlands
Your Internet Provider and Government can track your torrent activity!  Hide your IP ADDRESS with a VPN!
ExtraTorrent strongly recommends using Trust.Zone VPN to anonymize your torrenting. It's FREE!
Get VPN Now for FREE!

Extratorrent > Categories > Movies torrents > Bollywood/Desi torrents


Browse Movies torrents

Naam Hai Akira (2016) 720p Blu-Ray x264 AAC 5.1 ESub -DDR torrent


Download torrent:Download Naam Hai Akira (2016) 720p Blu-Ray x264 AAC 5.1 ESub -DDR torrentMagnet linkBookmark Torrent: Naam Hai Akira (2016) 720p Blu-Ray x264 AAC 5.1 ESub -DDR Naam Hai Akira (2016) 720p Blu-Ray x264 AAC 5.1 ESub -DDR torrent
Info hash:5EB4BEFF2D78E93E10278678B113B6CE3B8E6C90
Category:Categories > Movies torrents > Bollywood/Desi torrents
Trackers:
13   View all torrent trackers >
Health:
 seeds: 63, leechers: 35| Update >
Torrent language:Hindi Hindi
Total Size:1.63 GB
Number of files:
3   View torrent files >
Torrent status:Added by trusted uploader Added by trusted uploader Vip MemberTrusted UploaderET junkieET loverSuperman
Uploader:Vip MemberTrusted UploaderET junkieET loverSuperman
Torrent added:2017-01-11 03:58:48   |   Last edit: 2017-01-11 14:51:31 by
SaM
Users rating:---, not rated. please login to rate.
Naam Hai Akira (2016) 720p Blu-Ray x264 AAC 5.1 ESub -DDR


Download Naam Hai Akira (2016) 720p Blu-Ray x264 AAC 5.1 ESub -DDR torrent




Your IP Address is 109.201.154.153.   Location is Netherlands
Your Internet Provider and Government can track your torrent activity!  Hide your IP ADDRESS with a VPN!
ExtraTorrent strongly recommends using Trust.Zone VPN to anonymize your torrenting. It's FREE!

HIDE ME NOW
Torrent Description
ddr_logo.png
cca88e945df61bbab2d9efc8fe81a6ec.md.jpg


7200p Blu-Ray Rip x264

Hindi AAC 5.1 Audio

English Subs

SCREENSHOTS
83d6065c2b7fbb97a105d35dde86dd04.th.png 6f7624c4623002664027f9fb35ddb048.th.png f3df4d24eb2aa16bd56ef4f28ae600fa.th.png 225587b1a97a42dedca668fb1a566583.th.png 2bf488404e7f6d134c0ec4981583b4d1.th.png e6e9d697817bc65900c6d75ed32b52a2.th.png cc8ee83e074057e618a1e3ec190bc6cb.th.png faa7d2c372e4320ed998a613cc96fe38.th.png 19c61ae4beeaab2a3641ed2634e02979.th.png ed4a5d7453a97f2ab605b90803020e7e.th.png d142a8b362a1496dd285a3f01d81fc81.th.png ef30cae9586a7656b6d04b82159f43ee.th.png 447a13326b1eb56051a7376b267113f8.th.png 0cad7e6938935eaefd87daa18e89e9b9.th.png 3e6e7f0315a4c23599fb540d393586a5.th.png

SPECS


Source: Blu-ray BD50 @ HDT

Format : Matroska
File size : 1.62 GiB
Duration : 2 h 16 min
Overall bit rate : 1 696 kb/s

Video
Format : AVC
Format/Info : Advanced Video Codec
Format profile : [email protected]
Format settings, CABAC : Yes
Format settings, ReFrames : 12 frames
Codec ID : V_MPEG4/ISO/AVC
Duration : 2 h 16 min
Bit rate : 1 500 kb/s
Width : 1 280 pixels
Height : 534 pixels
Display aspect ratio : 2.40:1
Frame rate mode : Constant
Frame rate : 24.000 FPS
Color space : YUV
Chroma subsampling : 4:2:0
Bit depth : 8 bits
Scan type : Progressive
Bits/(Pixel*Frame) : 0.091
Stream size : 1.43 GiB (88%)
Default : Yes
Forced : No
Color range : Limited
Color primaries : BT.709
Transfer characteristics : BT.709
Matrix coefficients : BT.709

Audio #1
Format : AAC
Format/Info : Advanced Audio Codec
Format profile : LC
Codec ID : A_AAC
Duration : 2 h 16 min
Bit rate : 192 kb/s
Channel(s) : 6 channels
Channel positions : Front: L C R, Side: L R, LFE
Sampling rate : 48.0 kHz
Frame rate : 46.875 FPS (1024 spf)
Compression mode : Lossy
Delay relative to video : 9 ms
Stream size : 188 MiB (11%)
Language : Hindi
Default : Yes
Forced : No

SAMPLE Included

A DDR Exclusive Encode

Download Naam Hai Akira (2016) 720p Blu-Ray x264 AAC 5.1 ESub -DDR torrent


Related Torrents


Comments (please add your comment)
No comments



Home - Browse Torrents - Upload Torrent - Stat - Forum - FAQ - Login
extra-torrent.online is in compliance with copyrights
BitCoin: 12DiyqsWhENahDzdhdYsRrCw8FPQVcCkcm
Can't load ExtraTorrent? Try our official mirrors: etmirror.com - etproxy.com - extratorrentonline.com - extratorrentlive.com
2006-2017 extra-torrent.online1