extra-torrent.online - The Largest Bittorent SystemLogin   |   Register
Latest Articles
Most searched
Hot torrents
First Cams
View Torrent Info: The Fate of the Furious 2017 HD-TS x264 AC3-CPG
View Torrent Info: The Boss Baby 2017 720p HD-TS x264 AC3-CPG
View Torrent Info: Before I Fall 2017 HDCAM 700MB x264-DiRG
View Torrent Info: The Belko Experiment 2017 HDCAM 700MB x264-DiRG
Hot torrents
XVID DIVX
View Torrent Info: N.O.L.A.Circus.2016.HDRip.XViD-ETRG
View Torrent Info: The.Holly.Kane.Experiment.2017.HDRip.XviD.AC3-EVO
View Torrent Info: Wolves.At.the.Door.2016.HDRip.XViD-ETRG
View Torrent Info: The.Legend.of.Ben.Hall.2016.BRRip.XViD.AC3-ETRG
Hot torrents
H264 X264
View Torrent Info: Wolves.At.the.Door.2016.720p.WEB-DL.H264.AC3-ETRG
View Torrent Info: The.Legend.of.Ben.Hall.2016.720p.BluRay.x264-ENCOUNTERS[EtHD]
View Torrent Info: Heat (1995) 720p BluRay x264 AC3 Soup
View Torrent Info: Wanted (2008) 720p BluRay x264 DTS Soup
Hot torrents
BluRay, 4k UHD
View Torrent Info: Mine 2017 Bluray 1080p x264 DTSHD 5.1 -DDR
View Torrent Info: All.We.Had.2016.Multi.1080p.Blu-ray.x264.DTS-HD.5.1-DDR
View Torrent Info: Paterson 2016 Multi BLURAY 1080p x264 DTSHD 5.1 -DDR
View Torrent Info: Rings.2017.Multi.BluRay.1080p.x264.DTS-HD.MA.7.1-DDR
Hot torrents
Television
View Torrent Info: Better.Call.Saul.S03E03.WEB-DL.x264-FUM[ettv]
View Torrent Info: Supergirl.S02E18.WEB-DL.x264-FUM[ettv]
View Torrent Info: Bates.Motel.S05E10.WEB-DL.x264-FUM[ettv]
View Torrent Info: Gotham.S03E15.REPACK.HDTV.x264-KILLERS[ettv]
View Torrent Info: Sing 2016 720p BluRay Hindi DD 5.1 x264-SnowDoN
View Torrent Info: House II : The Second Story (1987) x264 720p UNCUT BluRay Eng Subs {Dual Audio} [Hindi ORG DD 2.0   English 5.1] Exclusive By DREDD
View Torrent Info: Winner (2017) - 1080p - WEBRip - x264 - AC3 - ESub - [DDR]
View Torrent Info: [18 ] The Assignment (1997) UNRATED 720p WEBRip x264 Eng Subs [Dual Audio] [Hindi 2.0 - English 5.1] Exclusive By -=!Dr.STAR!=-
30s
Chat
To add new messages please Login or Register for FREE
Warning! Stop Government from Tracking Your Torrenting!
Your IP Address is 216.151.183.71.   Location is United States
Your Internet Provider and Government can track your internet activity! Hide your IP and LOCATION with a VPN
ExtraTorrent strongly recommends using Trust.Zone VPN to anonymize your torrenting. It's FREE!
HIDE ME NOW

Extratorrent > Categories > Movies torrents > Bollywood/Desi torrents


Browse Movies torrents

Naam Hai Akira (2016) 720p Blu-Ray x264 AAC 5.1 ESub -DDR torrent


Download torrent:Download Naam Hai Akira (2016) 720p Blu-Ray x264 AAC 5.1 ESub -DDR torrentMagnet linkBookmark Torrent: Naam Hai Akira (2016) 720p Blu-Ray x264 AAC 5.1 ESub -DDR Naam Hai Akira (2016) 720p Blu-Ray x264 AAC 5.1 ESub -DDR torrent
Info hash:5EB4BEFF2D78E93E10278678B113B6CE3B8E6C90
Category:Categories > Movies torrents > Bollywood/Desi torrents
Trackers:
13   View all torrent trackers >
Health:
 seeds: 63, leechers: 35| Update >
Torrent language:Hindi Hindi
Total Size:1.63 GB
Number of files:
3   View torrent files >
Torrent status:Added by trusted uploader Added by trusted uploader Vip MemberTrusted UploaderET junkieET loverSuperman
Uploader:Vip MemberTrusted UploaderET junkieET loverSuperman
Torrent added:2017-01-11 03:58:48   |   Last edit: 2017-01-11 14:51:31 by
SaM
Users rating:---, not rated. please login to rate.
Naam Hai Akira (2016) 720p Blu-Ray x264 AAC 5.1 ESub -DDR


Download Naam Hai Akira (2016) 720p Blu-Ray x264 AAC 5.1 ESub -DDR torrent




Your IP Address is 216.151.183.71.   Location is United States
Your Internet Provider and Government can track your torrent activity!  Hide your IP ADDRESS with a VPN!
ExtraTorrent strongly recommends using Trust.Zone VPN to anonymize your torrenting. It's FREE!

HIDE ME NOW
Torrent Description
ddr_logo.png
cca88e945df61bbab2d9efc8fe81a6ec.md.jpg


7200p Blu-Ray Rip x264

Hindi AAC 5.1 Audio

English Subs

SCREENSHOTS
83d6065c2b7fbb97a105d35dde86dd04.th.png 6f7624c4623002664027f9fb35ddb048.th.png f3df4d24eb2aa16bd56ef4f28ae600fa.th.png 225587b1a97a42dedca668fb1a566583.th.png 2bf488404e7f6d134c0ec4981583b4d1.th.png e6e9d697817bc65900c6d75ed32b52a2.th.png cc8ee83e074057e618a1e3ec190bc6cb.th.png faa7d2c372e4320ed998a613cc96fe38.th.png 19c61ae4beeaab2a3641ed2634e02979.th.png ed4a5d7453a97f2ab605b90803020e7e.th.png d142a8b362a1496dd285a3f01d81fc81.th.png ef30cae9586a7656b6d04b82159f43ee.th.png 447a13326b1eb56051a7376b267113f8.th.png 0cad7e6938935eaefd87daa18e89e9b9.th.png 3e6e7f0315a4c23599fb540d393586a5.th.png

SPECS


Source: Blu-ray BD50 @ HDT

Format : Matroska
File size : 1.62 GiB
Duration : 2 h 16 min
Overall bit rate : 1 696 kb/s

Video
Format : AVC
Format/Info : Advanced Video Codec
Format profile : [email protected]
Format settings, CABAC : Yes
Format settings, ReFrames : 12 frames
Codec ID : V_MPEG4/ISO/AVC
Duration : 2 h 16 min
Bit rate : 1 500 kb/s
Width : 1 280 pixels
Height : 534 pixels
Display aspect ratio : 2.40:1
Frame rate mode : Constant
Frame rate : 24.000 FPS
Color space : YUV
Chroma subsampling : 4:2:0
Bit depth : 8 bits
Scan type : Progressive
Bits/(Pixel*Frame) : 0.091
Stream size : 1.43 GiB (88%)
Default : Yes
Forced : No
Color range : Limited
Color primaries : BT.709
Transfer characteristics : BT.709
Matrix coefficients : BT.709

Audio #1
Format : AAC
Format/Info : Advanced Audio Codec
Format profile : LC
Codec ID : A_AAC
Duration : 2 h 16 min
Bit rate : 192 kb/s
Channel(s) : 6 channels
Channel positions : Front: L C R, Side: L R, LFE
Sampling rate : 48.0 kHz
Frame rate : 46.875 FPS (1024 spf)
Compression mode : Lossy
Delay relative to video : 9 ms
Stream size : 188 MiB (11%)
Language : Hindi
Default : Yes
Forced : No

SAMPLE Included

A DDR Exclusive Encode

Download Naam Hai Akira (2016) 720p Blu-Ray x264 AAC 5.1 ESub -DDR torrent


Related Torrents


Comments (please add your comment)
No comments



Home - Browse Torrents - Upload Torrent - Stat - Forum - FAQ - Login
extra-torrent.online is in compliance with copyrights
Can't load ExtraTorrent? Try our official mirrors: etmirror.com - etproxy.com - extratorrentonline.com - extratorrentlive.com
2006-2017 extra-torrent.online5